Descargas

Malditos Bastardos [2009][HDRip][Castellano][Bélica]

MONTAJE PROPIO

************************************************** *****
************************************************** *******
************************************************** *****

Malditos Bastardos


TÍTULO ORIGINAL Inglourious Basterds (Inglorious Bastards)
AÑO 2009
DURACIÓN 153 min.
PAÍS [Estados Unidos]
DIRECTOR Quentin Tarantino
GUIÓN Quentin Tarantino
MÚSICA Varios
FOTOGRAFÍA Robert Richardson
REPARTO Brad Pitt, Christoph Waltz, Mélanie Laurent, Diane Kruger, Michael Fassbender, Daniel Brühl, Eli Roth, Til Schweiger, B. J. Novak, August Diehl, Mike Myers, Omar Doom, Sylvester Groth, Denis Menochet, Richard Sammel, Jacky Ido, Martin Wuttke, Julie Dreyfus, Samm Levine, Gedeon Burkhard, Rod Taylor, Christian Berkel, Léa Seydoux
PRODUCTORA Coproducción USA-Alemania; Universal Pictures / The Weinstein Company / Lawrence Bender Productions / Neunte Babelsberg Film
PREMIOS 2009: Oscar: Mejor actor de reparto (Christoph Waltz). 8 nominaciones
2009: Globo de Oro: Mejor actor secundario (Christoph Waltz). 4 nominaciones
2009: Premios BAFTA: Mejor actor sec. (Waltz). 6 nom., incluyendo mejor director
2009: Festival de Cannes: Mejor actor (Christoph Waltz)
2009: Premios David di Donatello: Mejor film extranjero
2009: Asociación de Críticos de Los Angeles: Mejor actor secundario (Christoph Waltz)
2009: 3 Critics’ Choice Awards: Actor secundario, guión original y reparto. 10 nominaciones
GÉNERO Bélico. Aventuras. Acción. Comedia | II Guerra Mundial. Nazismo
SINOPSIS Segunda Guerra Mundial. Durante la ocupación de Francia por los alemanes, Shosanna Dreyfus (Mélanie Laurent) presencia la ejecución de su familia por orden del coronel nazi Hans Landa (Christoph Waltz). Después de huir a París, adopta una nueva identidad como propietaria de un cine. En otro lugar de Europa, el teniente Aldo Raine (Brad Pitt) adiestra a un grupo de soldados judíos ("The Basterds") para atacar objetivos concretos. Los hombres de Raine y una actriz alemana (Diane Kruger), que trabaja para los aliados, deben llevar a cabo una misión que hará caer a los jefes del Tercer Reich. El destino quiere que todos se encuentren bajo la marquesina de un cine donde Shosanna espera para vengarse. (FILMAFFINITY)

Puntuación Filmaffinity : 7,7



************************************************** ************************************************** ***************


Formato: AVI
Tamaño: 2,80GB
Codec Video: XviD
Resolucion: 720×304
Format profile: Advanced Simple@L5
Frame Rate: 23.976 fps
Audio : Castellano; AC3 640 kbps ; 6 canales

Archivos .rar 200mb aprox. + 3 archivos de recuperación .rev + 5% de recuperacion

¡¡¡¡Archivos intercambiables!!!

************************************************** ************************************************** *****************

MediaInfo

[SPOILER]

General
Complete name : MalditosBastardos.HDrip.esKuaK.avi
Format : AVI
Format/Info : Audio Video Interleave
Format profile : OpenDML
File size : 2.80 GiB
Duration : 2h 32mn
Overall bit rate : 2 623 Kbps
Writing application : VirtualDubMod 1.5.10.2 (build 2540/release)
Writing library : VirtualDubMod build 2540/release

Video
ID : 0
Format : MPEG-4 Visual
Format profile : Advanced Simple@L5
Format settings, BVOP : 2
Format settings, QPel : No
Format settings, GMC : No warppoints
Format settings, Matrix : Default (MPEG)
Codec ID : XVID
Codec ID/Hint : XviD
Duration : 2h 32mn
Bit rate : 1 972 Kbps
Width : 720 pixels
Height : 304 pixels
Display aspect ratio : 2.35:1
Frame rate : 23.976 fps
Color space : YUV
Chroma subsampling : 4:2:0
Bit depth : 8 bits
Scan type : Progressive
Compression mode : Lossy
Bits/(Pixel*Frame) : 0.376
Stream size : 2.11 GiB (75%)
Writing library : XviD 1.2.1 (UTC 2008-12-04)

Audio
ID : 1
Format : AC-3
Format/Info : Audio Coding 3
Mode extension : CM (complete main)
Format settings, Endianness : Big
Codec ID : 2000
Duration : 2h 32mn
Bit rate mode : Constant
Bit rate : 640 Kbps
Channel(s) : 6 channels
Channel positions : Front: L C R, Side: L R, LFE
Sampling rate : 48.0 KHz
Bit depth : 16 bits
Compression mode : Lossy
Stream size : 700 MiB (24%)
Alignment : Split accross interleaves
Interleave, duration : 42 ms (1.00 video frame)
Interleave, preload duration : 500 ms

[/SPOILER]

************************************************** ******************

************************************************** ******************

Enlaces

Archivos .rar 200mb aprox. + 3 archivos de recuperación .rev + 3% de recuperacion

Código:

http://140b589e.miniurls.co

Descarga de los verdaderos montadores, siempre tendrás soporte para todos sus aportes.

************************************************** ********************************
************************************************** ********************************

Programas Necesarios y/o Recomendados


JDownloader o Mipony : Gestor de descargas. Winrar o 7Zip Compresor/descompresor de archivos .Rar o .7Zip .

QuickSFV o FlashSFV Verifica archivos .rar (Recomendable). HJSplitt Une las partes comprimidas en 7zip

************************************************** ********************************

Agradeceria comentario despues de visualizar el aporte. Gracias. Un saludo

About admin

No information is provided by the author.

Deja un comentario